Brown Eyed Girls - Abracadabra (高码率)[1080P]

Brown Eyed Girls - Abracadabra

编码信息

General
Complete name : D:\Brown Eyed Girls - Abracadabra (1080p).avi
Format : AVI
Format/Info : Audio Video Interleave
File size : 356 MiB
Duration : 4 min 19 s
Overall bit rate : 11.5 Mb/s
Writing application : Lavf52.39.0

Video
ID : 0
Format : MPEG-4 Visual
Codec ID : DIV3
Codec ID/Hint : DivX 3 Low
Duration : 4 min 19 s
Bit rate : 11.3 Mb/s
Width : 1 920 pixels
Height : 1 080 pixels
Display aspect ratio : 16:9
Frame rate : 29.970 (30000/1001) FPS
Color space : YUV
Chroma subsampling : 4:2:0
Bit depth : 8 bits
Scan type : Progressive
Compression mode : Lossy
Bits/(Pixel*Frame) : 0.182
Stream size : 350 MiB (98%)

Audio
ID : 1
Format : MPEG Audio
Format version : Version 1
Format profile : Layer 3
Format settings : Joint stereo / MS Stereo
Codec ID : 55
Codec ID/Hint : MP3
Duration : 4 min 19 s
Bit rate mode : Constant
Bit rate : 192 kb/s
Channel(s) : 2 channels
Sampling rate : 44.1 kHz
Compression mode : Lossy
Stream size : 5.93 MiB (2%)
Alignment : Aligned on interleaves
Interleave, duration : 26 ms (0.78 video frame)
Writing library : LAME3.98.2

此资源下载价格为0.2微币,请先
如免费链接失效,请使用长期链接或购买开通VIP获取高速链接。
下載價格:0.2 微币
分辨率:1080P
视频格式:AVI
视频大小:356M
下載説明:如免费链接失效,请使用长期链接或购买开通VIP获取高速链接。
0
分享到:

评论0

请先

没有账号? 忘记密码?