Sistar - Alone (GomTV+Melon)[720P]

编码信息

GOMTV

General
Complete name : D:\Sistar - Alone (GomTV720P).avi
Format : AVI
Format/Info : Audio Video Interleave
File size : 204 MiB
Duration : 3 min 28 s
Overall bit rate mode : Variable
Overall bit rate : 8 222 kb/s
Writing application : GOM ENCODER (GAviWriter 1.0)

Video
ID : 0
Format : MPEG-4 Visual
Format profile : Simple@L1
Format settings, BVOP : No
Format settings, QPel : No
Format settings, GMC : No warppoints
Format settings, Matrix : Default (H.263)
Codec ID : XVID
Codec ID/Hint : XviD
Duration : 3 min 28 s
Bit rate : 7 918 kb/s
Width : 1 280 pixels
Height : 720 pixels
Display aspect ratio : 16:9
Frame rate : 23.976 (23976/1000) FPS
Color space : YUV
Chroma subsampling : 4:2:0
Bit depth : 8 bits
Scan type : Progressive
Compression mode : Lossy
Bits/(Pixel*Frame) : 0.358
Stream size : 196 MiB (96%)
Writing library : Lavc52.110.0

Audio
ID : 1
Format : MPEG Audio
Format version : Version 1
Format profile : Layer 3
Format settings : Joint stereo
Codec ID : 55
Codec ID/Hint : MP3
Duration : 3 min 27 s
Bit rate mode : Variable
Bit rate : 288 kb/s
Channel(s) : 2 channels
Sampling rate : 48.0 kHz
Compression mode : Lossy
Stream size : 7.20 MiB (4%)
Alignment : Aligned on interleaves
Interleave, duration : 24 ms (0.58 video frame)
Interleave, preload duration : 2 ms

Melon

General
Complete name : D:\Sistar - Alone (Melon720P).mp4
Format : MPEG-4
Format profile : Base Media / Version 2
Codec ID : mp42 (mp42/mp41)
File size : 198 MiB
Duration : 3 min 26 s
Overall bit rate mode : Variable
Overall bit rate : 8 017 kb/s
Encoded date : UTC 2012-04-12 02:06:18
Tagged date : UTC 2012-04-12 02:06:18
TIM : 00:00:00:00

Video
ID : 1
Format : AVC
Format/Info : Advanced Video Codec
Format profile : Main@L5.1
Format settings : CABAC / 3 Ref Frames
Format settings, CABAC : Yes
Format settings, Reference fra : 3 frames
Codec ID : avc1
Codec ID/Info : Advanced Video Coding
Duration : 3 min 26 s
Source duration : 3 min 26 s
Source_Duration_LastFrame : -1 s 376 ms
Bit rate mode : Constant
Bit rate : 8 000 kb/s
Width : 1 280 pixels
Height : 720 pixels
Display aspect ratio : 16:9
Frame rate mode : Constant
Frame rate : 23.976 (23976/1000) FPS
Original frame rate : 23.976 (24000/1001) FPS
Standard : NTSC
Color space : YUV
Chroma subsampling : 4:2:0
Bit depth : 8 bits
Scan type : Progressive
Bits/(Pixel*Frame) : 0.362
Stream size : 196 MiB (99%)
Source stream size : 196 MiB (99%)
Language : English
Encoded date : UTC 2012-04-12 02:06:18
Tagged date : UTC 2012-04-12 02:06:18
Color range : Limited
mdhd_Duration : 206751
Codec configuration box : avcC

Audio
ID : 2
Format : AAC LC
Format/Info : Advanced Audio Codec Low Complexity
Codec ID : mp4a-40-2
Duration : 3 min 26 s
Source duration : 3 min 28 s
Bit rate mode : Variable
Bit rate : 48.0 kb/s
Maximum bit rate : 81.5 kb/s
Channel(s) : 2 channels
Channel layout : L R
Sampling rate : 22.05 kHz
Frame rate : 21.533 FPS (1024 SPF)
Compression mode : Lossy
Stream size : 1.15 MiB (1%)
Source stream size : 1.16 MiB (1%)
Language : English
Encoded date : UTC 2012-04-12 02:06:18
Tagged date : UTC 2012-04-12 02:06:18

此资源下载价格为0.3微币,请先
如免费链接失效,请使用长期链接或购买开通VIP获取高速链接。
下載價格:0.3 微币
视频版本:Melon+GomTV
分辨率:720P
视频格式:MP4
视频大小:M
下載説明:如免费链接失效,请使用长期链接或购买开通VIP获取高速链接。
0
分享到:

评论0

请先

没有账号? 忘记密码?