2PM - Im Your Man (Melon)[720P]

2PM - Im Your Man

编码信息

General
Complete name : D:\2PM - Im Your Man (Melon720P).mp4
Format : MPEG-4
Format profile : Base Media / Version 2
Codec ID : mp42 (isom/mp41/avc1)
File size : 188 MiB
Duration : 3 min 14 s
Overall bit rate mode : Variable
Overall bit rate : 8 115 kb/s
Encoded date : UTC 2011-08-17 01:52:03
Tagged date : UTC 2011-08-17 01:52:03
Writing library : Apple QuickTime

Video
ID : 1
Format : AVC
Format/Info : Advanced Video Codec
Format profile : Main@L3.1
Format settings : 6 Ref Frames
Format settings, CABAC : No
Format settings, Reference fra : 6 frames
Codec ID : avc1
Codec ID/Info : Advanced Video Coding
Duration : 3 min 14 s
Source duration : 3 min 14 s
Bit rate mode : Variable
Bit rate : 7 593 kb/s
Maximum bit rate : 8 001 kb/s
Width : 1 280 pixels
Height : 720 pixels
Display aspect ratio : 16:9
Frame rate mode : Constant
Frame rate : 29.970 (29970/1000) FPS
Standard : Component
Color space : YUV
Chroma subsampling : 4:2:0
Bit depth : 8 bits
Scan type : Progressive
Bits/(Pixel*Frame) : 0.275
Stream size : 176 MiB (94%)
Source stream size : 183 MiB (98%)
Language : English
Encoded date : UTC 2011-08-17 01:52:03
Tagged date : UTC 2011-08-17 01:52:03
Color range : Limited
mdhd_Duration : 194227
Codec configuration box : avcC

Audio
ID : 2
Format : AAC LC
Format/Info : Advanced Audio Codec Low Complexity
Codec ID : mp4a-40-2
Duration : 3 min 14 s
Bit rate mode : Variable
Bit rate : 192 kb/s
Maximum bit rate : 199 kb/s
Channel(s) : 2 channels
Channel layout : L R
Sampling rate : 48.0 kHz
Frame rate : 46.875 FPS (1024 SPF)
Compression mode : Lossy
Stream size : 4.45 MiB (2%)
Language : English
Encoded date : UTC 2011-08-17 01:52:03
Tagged date : UTC 2011-08-17 01:52:03

Other #1
ID : 3
Type : Object description
Format : System Core
Codec ID : mp4s-02
Duration : 3 min 14 s
Title : 
Language : English
Encoded date : UTC 2011-08-17 01:52:03
Tagged date : UTC 2011-08-17 01:52:03
mdhd_Duration : 1000

Other #2
ID : 4
Type : Scene description
Format : System Core
Codec ID : mp4s-02
Duration : 3 min 14 s
Title : 
Language : English
Encoded date : UTC 2011-08-17 01:52:03
Tagged date : UTC 2011-08-17 01:52:03
mdhd_Duration : 1000

此资源下载价格为0.2微币,请先
如免费链接失效,请使用长期链接或购买开通VIP获取高速链接。
下載價格:0.2 微币
视频版本:Melon
分辨率:720P
视频格式:MP4
视频大小:187M
下載説明:如免费链接失效,请使用长期链接或购买开通VIP获取高速链接。
0
分享到:

评论0

请先

没有账号? 忘记密码?