郑恩地 - AWay (Bugs)[1080P]

郑恩地 - AWay (Bugs)

专辑简介

General
Complete name : D:\Jeong Eun Ji - AWay_정은지_1080p.mp4
Format : MPEG-4
Format profile : Base Media / Version 2
Codec ID : mp42 (mp42/mp41)
File size : 851 MiB
Duration : 3 min 22 s
Overall bit rate mode : Variable
Overall bit rate : 35.2 Mb/s
Encoded date : UTC 2020-07-09 14:22:15
Tagged date : UTC 2020-07-09 14:43:49
TIM : 00:00:00:00
TSC : 24000
TSZ : 1001

Video
ID : 1
Format : AVC
Format/Info : Advanced Video Codec
Format profile : High@L4.2
Format settings : CABAC / 2 Ref Frames
Format settings, CABAC : Yes
Format settings, Reference fra : 2 frames
Format settings, GOP : M=2, N=47
Codec ID : avc1
Codec ID/Info : Advanced Video Coding
Duration : 3 min 22 s
Bit rate mode : Variable
Bit rate : 34.9 Mb/s
Maximum bit rate : 768 kb/s
Width : 1 920 pixels
Height : 1 080 pixels
Display aspect ratio : 16:9
Frame rate mode : Constant
Frame rate : 23.976 (24000/1001) FPS
Color space : YUV
Chroma subsampling : 4:2:0
Bit depth : 8 bits
Scan type : Progressive
Bits/(Pixel*Frame) : 0.702
Stream size : 843 MiB (99%)
Language : English
Encoded date : UTC 2020-07-09 14:22:15
Tagged date : UTC 2020-07-09 14:22:15
Color range : Limited
Color primaries : BT.709
Transfer characteristics : BT.709
Matrix coefficients : BT.709
Codec configuration box : avcC

Audio
ID : 2
Format : AAC LC
Format/Info : Advanced Audio Codec Low Complexity
Codec ID : mp4a-40-2
Duration : 3 min 22 s
Source duration : 3 min 22 s
Bit rate mode : Variable
Bit rate : 317 kb/s
Maximum bit rate : 408 kb/s
Channel(s) : 2 channels
Channel layout : L R
Sampling rate : 48.0 kHz
Frame rate : 46.875 FPS (1024 SPF)
Compression mode : Lossy
Stream size : 7.67 MiB (1%)
Source stream size : 7.67 MiB (1%)
Language : English
Encoded date : UTC 2020-07-09 14:22:18
Tagged date : UTC 2020-07-09 14:22:18

高速链接

此隐藏内容仅限VIP查看升级VIP

免费链接(30天有效)

文件1地址点击下载

免费链接(30天有效)

文件1地址点击下载
资源下载价格0.3立即支付    升级VIP后免费升级VIP
如免费链接失效,请使用长期链接或购买开通VIP获取高速链接。
資源下載價格0.3立即支付    升級VIP後免費立即升級
视频版本:Bugs
分辨率:1080P
视频格式:MP4
视频大小:851M
如免费链接失效,请使用长期链接或购买开通VIP获取高速链接。
0
分享到:

评论0

请先

没有账号? 忘记密码?