TWICE - MORE & MORE (Bugs)[2160P]

TWICE - MORE & MORE (Bugs)[2160P]

编码信息

General
Complete name : J:\新建文件夹\TWICE - MORE & MORE (Bugs).mp4
Format : MPEG-4
Format profile : Base Media / Version 2
Codec ID : mp42 (mp42/mp41)
File size : 1.36 GiB
Duration : 4 min 0 s
Overall bit rate mode : Variable
Overall bit rate : 48.7 Mb/s
Encoded date : UTC 2020-05-30 14:14:39
Tagged date : UTC 2020-05-30 14:59:27
TIM : 00:00:00:00
TSC : 24000
TSZ : 1001

Video
ID : 1
Format : AVC
Format/Info : Advanced Video Codec
Format profile : Main@L5.1
Format settings : CABAC / 4 Ref Frames
Format settings, CABAC : Yes
Format settings, Reference fra : 4 frames
Codec ID : avc1
Codec ID/Info : Advanced Video Coding
Duration : 4 min 0 s
Bit rate : 48.4 Mb/s
Width : 3 840 pixels
Height : 2 160 pixels
Display aspect ratio : 16:9
Frame rate mode : Constant
Frame rate : 23.976 (24000/1001) FPS
Color space : YUV
Chroma subsampling : 4:2:0
Bit depth : 8 bits
Scan type : Progressive
Bits/(Pixel*Frame) : 0.243
Stream size : 1.35 GiB (99%)
Language : English
Encoded date : UTC 2020-05-30 14:14:40
Tagged date : UTC 2020-05-30 14:14:40
Color range : Limited
Color primaries : BT.709
Transfer characteristics : BT.709
Matrix coefficients : BT.709
Codec configuration box : avcC

Audio
ID : 2
Format : AAC LC
Format/Info : Advanced Audio Codec Low Complexity
Codec ID : mp4a-40-2
Duration : 4 min 0 s
Source duration : 4 min 0 s
Bit rate mode : Variable
Bit rate : 317 kb/s
Maximum bit rate : 414 kb/s
Channel(s) : 2 channels
Channel layout : L R
Sampling rate : 48.0 kHz
Frame rate : 46.875 FPS (1024 SPF)
Compression mode : Lossy
Stream size : 9.09 MiB (1%)
Source stream size : 9.09 MiB (1%)
Language : English
Encoded date : UTC 2020-05-30 14:14:40
Tagged date : UTC 2020-05-30 14:14:40

免费链接(30天有效)

此下载链接或隐藏内容 评论 本文后刷新可见!

免费链接(30天有效)

此下载链接或隐藏内容 评论 本文后刷新可见!
此资源下载价格为8微币,请先
如免费链接失效,请使用长期链接或购买开通VIP获取高速链接。
下載價格:8 微币
VIP優惠:免費
视频版本:Bugs
分辨率:2160P
视频格式:MP4
视频大小:1.36G
下載説明:如免费链接失效,请使用长期链接或购买开通VIP获取高速链接。
0
分享到:

评论0

请先

没有账号? 忘记密码?