BEN - 나쁜 놈 (Bugs) [1080P]

编码信息

General
Complete name : J:\新建文件夹\BEN - 나쁜 놈 (bugs1080P).mp4
Format : MPEG-4
Codec ID : M4V (M4V /mp42/isom)
File size : 487 MiB
Duration : 3 min 57 s
Overall bit rate mode : Variable
Overall bit rate : 17.2 Mb/s
Encoded date : UTC 2020-04-22 13:54:43
Tagged date : UTC 2020-04-22 13:54:52
TIM : 01:00:32:00
TSC : 24000
TSZ : 1001

Video
ID : 1
Format : AVC
Format/Info : Advanced Video Codec
Format profile : High@L4
Format settings : 2 Ref Frames
Format settings, CABAC : No
Format settings, Reference fra : 2 frames
Codec ID : avc1
Codec ID/Info : Advanced Video Coding
Duration : 3 min 57 s
Source duration : 3 min 57 s
Bit rate : 17.0 Mb/s
Width : 1 920 pixels
Height : 1 080 pixels
Display aspect ratio : 16:9
Frame rate mode : Variable
Frame rate : 23.976 (24000/1001) FPS
Minimum frame rate : 23.976 FPS
Maximum frame rate : 24.000 FPS
Standard : NTSC
Color space : YUV
Chroma subsampling : 4:2:0
Bit depth : 8 bits
Scan type : Progressive
Bits/(Pixel*Frame) : 0.343
Stream size : 482 MiB (99%)
Source stream size : 482 MiB (99%)
Language : English
Encoded date : UTC 2020-04-22 13:54:43
Tagged date : UTC 2020-04-22 13:54:43
Color range : Limited
Color primaries : BT.709
Transfer characteristics : BT.709
Matrix coefficients : BT.709
mdhd_Duration : 237195
Codec configuration box : avcC

Audio
ID : 2
Format : AAC LC
Format/Info : Advanced Audio Codec Low Complexity
Codec ID : mp4a-40-2
Duration : 3 min 57 s
Source duration : 3 min 57 s
Bit rate mode : Variable
Bit rate : 157 kb/s
Maximum bit rate : 240 kb/s
Channel(s) : 2 channels
Channel layout : L R
Sampling rate : 48.0 kHz
Frame rate : 46.875 FPS (1024 SPF)
Compression mode : Lossy
Stream size : 4.45 MiB (1%)
Source stream size : 4.45 MiB (1%)
Language : English
Encoded date : UTC 2020-04-22 13:54:43
Tagged date : UTC 2020-04-22 13:54:43
mdhd_Duration : 237248

此资源下载价格为6微币,请先
如免费链接失效,请使用长期链接或购买开通VIP获取高速链接。
下載價格:6 微币
VIP優惠:免費
视频版本:Bugs
分辨率:1080P
视频格式:MP4
视频大小:487M
下載説明:如免费链接失效,请使用长期链接或购买开通VIP获取高速链接。
0
分享到:

评论0

请先

没有账号? 忘记密码?